Aakrosh (2010) Super Cam Rip Xvid


DOWNLOAD MOVIE AAKROSH GOOG QUALITY








Code: [Check Download Links]
General
Format                           : MPEG-PS
File size                        : 965 MiB
Duration                         : 2h 14mn
Overall bit rate                 : 1 005 Kbps

Video
ID                               : 224 (0xE0)
Format                           : MPEG Video
Format version                   : Version 2
Format profile                   : Main@Main
Format settings, BVOP            : Yes
Format settings, Matrix          : Default
Format settings, GOP             : M=3, N=12
Duration                         : 2h 14mn
Bit rate mode                    : Variable
Bit rate                         : 857 Kbps
Width                            : 352 pixels
Height                           : 288 pixels
Display aspect ratio             : 1.222
Frame rate                       : 29.970 fps
Standard                         : PAL
Color space                      : YUV
Chroma subsampling               : 4:2:0
Bit depth                        : 8 bits
Scan type                        : Progressive
Bits/(Pixel*Frame)               : 0.282
Stream size                      : 823 MiB (85%)

Audio
ID                               : 192 (0xC0)
Format                           : MPEG Audio
Format version                   : Version 1
Format profile                   : Layer 2
Duration                         : 2h 14mn
Bit rate mode                    : Constant
Bit rate                         : 128 Kbps
Channel(s)                       : 2 channels
Sampling rate                    : 44.1 KHz
Stream size                      : 123 MiB (13%)














Code: [Check Download Links]
http://rapidshare.com/files/425244370/aakrosh_final.mpg.001
http://rapidshare.com/files/425244470/aakrosh_final.mpg.002
http://rapidshare.com/files/425245240/aakrosh_final.mpg.003
http://rapidshare.com/files/425245776/aakrosh_final.mpg.004
http://rapidshare.com/files/425245844/aakrosh_final.mpg.005
MIRROR-






0 comments:

Post a Comment

Sponsers